最近看过此主题的会员

查看: 105|回复: 5
打印 上一主题 下一主题

[MV] Madonna feat. Maluma《Medellin》2019/MasterRip/1080p/BD

[复制链接]
 成长值: 32805

1万

主题

2万

帖子

76万

积分

音乐掌门人

Rank: 20Rank: 20Rank: 20Rank: 20Rank: 20

积分
763738

名人勋章社区QQ达人分享勋章精华帖达人灌水勋章

跳转到指定楼层
1#
发表于 2019-6-12 18:49:43 | 只看该作者 |只看大图 回帖奖励 |倒序浏览 |阅读模式

注册会员,获得无损资源下载地址,享受高品质音乐。

您需要 登录 才可以下载或查看,没有帐号?注册

x




Madonna feat. Maluma - Medellin

Качество: MasterRip
Разрешение видео/развертка: 1080p
Контейнер: MPEG4
Видео кодек: AVC
Аудио кодек: AAC
Видео: 1920 x 1080 (1.778) at 25.000 fps AVC at 21,8 Мбит/сек
Аудио: 2 канала, 48,0 КГц AAC at 320 Кбит/сек

Формат                                   : MPEG-4
Профиль формата                          : Base Media / Version 2
Идентификатор кодека                     : mp42 (mp41/mp42/isom)
Размер файла                             : 1,03 Гбайт
Продолжительность                        : 6 м. 40 с.
Режим общего битрейта                    : Переменный
Общий поток                              : 22,1 Мбит/сек

Видео
Идентификатор                            : 1
Формат                                   : AVC
Формат/Информация                        : Advanced Video Codec
Профиль формата                          : [email protected]
Параметр CABAC формата                   : Да
Параметр ReFrames формата                : 2 кадра
Параметр GOP формата                     : M=1, N=30
Идентификатор кодека                     : avc1
Идентификатор кодека/Информация          : Advanced Video Coding
Продолжительность                        : 6 м. 40 с.
Вид битрейта                             : Переменный
Битрейт                                  : 21,8 Мбит/сек
Максимальный битрейт                     : 768 Кбит/сек
Ширина                                   : 1920 пикселей
Высота                                   : 1080 пикселей
Соотношение сторон                       : 16:9
Режим частоты кадров                     : Постоянный
Частота кадров                           : 25,000 кадров/сек
Цветовое пространство                    : YUV
Субдискретизация насыщенности            : 4:2:0
Битовая глубина                          : 8 бит
Тип развёртки                            : Прогрессивная
Бит/(Пиксели*Кадры)                      : 0.420
Размер потока                            : 1,02 Гбайт (99%)
Заголовок                                : Core Media Video
Цветовой диапазон                        : Limited
Основные цвета                           : BT.709
Характеристики трансфера                 : BT.709
Коэффициенты матрицы                     : BT.709

Аудио
Идентификатор                            : 2
Формат                                   : AAC
Формат/Информация                        : Advanced Audio Codec
Профиль формата                          : LC
Идентификатор кодека                     : 40
Продолжительность                        : 6 м. 40 с.
Продолжительность оригинала              : 6 м. 40 с.
Вид битрейта                             : Переменный
Битрейт                                  : 320 Кбит/сек
Максимальный битрейт                     : 328 Кбит/сек
Каналы                                   : 2 канала
Расположение каналов                     : Front: L R
Частота                                  : 48,0 КГц
Частота кадров                           : 46,875 кадров/сек (1024 spf)
Метод сжатия                             : С потерями
Размер потока                            : 15,3 Мбайт (1%)
Размер потока оригинала                  : 15,3 Мбайт (1%)
Заголовок                                : Core Media Audio
Язык                                     : English

=========================================
百度下载(阿战音乐汇总)
游客,如果您要查看本帖隐藏内容请回复




丁当 - 有什么不敢面对 - MP4 - 1080P - 73M - BD
蔡依林 - 你也有今天 - MKV - 4K - 189M - BD

本人发布的资源,有密码的话都是:菜鸟设计论坛 www.zaicheshang.cn
关于链接失效的说明(度盘好友分享的说明)
http://www.zaicheshang.cn/thread-117499-1-1.html     
紧急通告:115,快传等网盘取消了分享功能礼包码链接全部失效
http://www.zaicheshang.cn/thread-122759-1-1.html

111

主题

162

帖子

1万

积分

人气天王

Rank: 5Rank: 5

积分
10452
2#
发表于 7 天前 | 只看该作者
本帖最后由 DejaVuu 于 2019-6-13 10:45 编辑

已下载,看样子又是个风流的派对

0

主题

60

帖子

84

积分

新人会员,请认真回复,若恶意回复,直接封号

Rank: 1

积分
84
3#
发表于 7 天前 | 只看该作者
久违了的麦当娜, 谢谢分享!

0

主题

284

帖子

327

积分

乐坛新星

Rank: 2

积分
327
4#
发表于 7 天前 | 只看该作者
麦姐的mv吗,貌似很不错呢~

0

主题

572

帖子

1245

积分

职业歌手

Rank: 3Rank: 3

积分
1245

社区QQ达人

5#
发表于 7 天前 | 只看该作者
感谢分享,麦姐的MV.

0

主题

69

帖子

147

积分

新人会员,请认真回复,若恶意回复,直接封号

Rank: 1

积分
147
6#
发表于 7 天前 | 只看该作者
非常感谢分享!!!
您需要登录后才可以回帖 登录 | 注册

本版积分规则

快速回复 菜鸟设计论坛 返回列表
游戏资讯 | 高鹰代孕 | 广州代孕 |
  • 谁会胜出?外媒详解战争阴霾下的印巴军事实力对比_桂花茶的副作用
  • 上海市文化信息服务平台:文化动力网(一期)上线[视频]_卢以纯
  • 春节假期郑州铁路累计发送旅客235万人 商丘客流增长较大_苹果6配置
  • 我国黄金消费量连续5年居世界首位_春天的花开秋天的风以及冬天的落阳
  • 洪惟助:昆曲交流 两岸典范_胶水双核
  • 性教育,不只是为了防性侵_001113基金
  • 重庆斯威俱乐部官宣 亚泰主力后卫蒋哲加盟_硬笔书法学习
  • 苍梧:再摸底再调查理清养殖业产业发展思路_超级魂晶
  • 六月佳片集结预热暑期档_金陵十二钗电影
  • 故宮“海派”繪畫精品展亮相澳門_火箭队教练
  • “红船精神”彰显共产党人的信仰底色_许冠杰老婆
  • 屯昌计划明年使全县2.8万多名贫困人口稳定脱贫_温州游戏茶苑
  • 嘱托记心间 履职在一线(我和总书记面对面·特别策划)_沙加特
  • 从“双城”到“同城” 嘉兴医疗卫生全面接轨上海_龙珠第二部国语全集
  • 悬疑神作《调音师》终于来了_央吉玛老公